#TITLE:Through The Fire and Flames;
#SUBTITLE:Guitar Solo;
#ARTIST:Dragonforce;
#TITLETRANSLIT:;
#SUBTITLETRANSLIT:;
#ARTISTTRANSLIT:;
#CREDIT:;
#BANNER:banner.jpg;
#BACKGROUND:;
#LYRICSPATH:;
#CDTITLE:!Torrent.png;
#MUSIC:ttfafgs.mp3;
#OFFSET:-0.080;
#SAMPLESTART:69.271;
#SAMPLELENGTH:13.120;
#SELECTABLE:YES;
#BPMS:0.000=200.000,128.000=170.000,256.000=200.000;
#STOPS:;
#BGCHANGES:;
// cache tags:
#FIRSTBEAT:0.000;
#LASTBEAT:574.000;
#SONGFILENAME:Songs/Music V.I.P ^_^/generic dragonforce guitar solo sim/guitar hero ain't got nuttin on dis shit nigga.sm;
#HASMUSIC:1;
#HASBANNER:1;
#MUSICLENGTH:182.184;
// end cache tags

//---------------dance-single - ----------------
#NOTES:
     dance-single:
     :
     Hard:
     12:
     1.000,1.000,0.818,1.000,1.000,1608.000,149.000,243.000,0.000,6.000:
1001
0100
0010
1000
0100
0010
0001
0100
,
0001
0010
0100
0010
1000
0001
1010
0100
,
1001
0100
0010
1000
0100
0010
0001
0100
,
0001
0010
0100
0010
1000
0001
0010
0100
,
1001
0100
0010
1000
0100
0010
0001
0100
,
0001
0010
0100
0010
1000
0001
0010
0100
,
1001
0100
0010
1000
0100
0010
0001
0010
,
1001
0010
0100
0010
1000
0001
0010
0100
,
1001
0100
0010
1000
0100
0010
0001
0100
,
0001
0010
0100
0010
1000
0001
1010
0100
,
1001
0100
0010
1000
0100
0010
0001
0100
,
0001
0010
0100
0010
1000
0001
0010
0100
,
1001
0100
0010
1000
0100
0010
0001
0100
,
0001
0010
0100
0010
1000
0001
0010
0100
,
1001
0100
0010
1000
0100
0010
0001
0010
,
1001
0100
0010
0100
1010
0001
1000
0100
1001
0010
0100
1000
0001
0100
0010
0100
,
2001
0000
3020
2030
0000
3020
2030
3020
,
2030
0000
3020
2030
3000
0020
2030
3020
,
0230
0000
0302
0203
0300
0002
0203
0302
,
0203
0300
0002
0203
0300
0002
0203
0302
,
0023
0000
0230
0320
0030
0200
0320
0230
,
0320
0030
0200
0320
0030
0200
0320
0230
,
2300
0000
3200
2300
3000
0200
2300
3200
,
1300
0100
0010
0001
1000
0010
0100
0001
1000
0010
0001
1000
0220
0000
0000
0000
,
2330
0000
3020
2030
0000
3020
2030
3020
,
2030
0000
3020
2030
3000
0020
2030
3020
,
0230
0000
0302
0203
0300
0002
0203
0302
,
0203
0300
0002
0203
0300
0002
0203
0302
,
0023
0000
0230
0320
0030
0200
0320
0230
,
0320
0030
0200
0320
0030
0200
0320
0230
,
1300
0010
0100
0001
1000
0100
0010
0001
1000
0001
0100
0010
1000
0100
0010
0001
,
0200
0000
0000
0000
,
1300
0010
0100
0010
0100
0010
1000
0100
0001
0010
0100
0010
0100
0010
0100
0010
,
0001
0010
0001
0100
0010
0100
1000
0010
0100
0001
0100
0010
0100
0010
1000
0100
,
1000
0010
0100
0010
0100
0010
1000
0100
0001
0010
0100
0010
0100
0010
0100
0010
,
0001
0010
0001
0100
0010
0100
1000
0010
0100
0001
0100
0010
0100
0010
1000
0100
,
1000
0010
0100
0010
0100
0010
1000
0100
0001
0010
0100
0010
0100
0010
0100
0010
,
0001
0010
0001
0100
0010
0100
1000
0010
0100
0001
0100
0010
0100
0010
1000
0100
,
1000
0010
0100
0010
0100
0010
1000
0100
0001
0010
0100
0010
0100
0010
0100
0010
,
0001
0010
0001
0100
0010
0100
1000
0010
0100
0001
0100
0010
0100
0010
1000
0100
,
0010
0010
0000
0001
0010
0100
1000
0000
,
0100
0000
0000
0000
0000
0000
0100
0000
0000
0000
0000
0000
0000
0000
0000
0000
0000
0000
0000
0000
0100
0000
0010
0000
0001
0000
0000
0010
0000
0000
0100
0000
0000
1000
0000
0000
0100
0000
0000
0000
0000
0000
0000
0000
0000
0000
0000
0000
,
1000
0010
1000
0010
0100
0010
0100
0010
0100
0001
0100
0001
1000
0001
1000
0001
,
0100
0000
0000
0010
0000
0000
0100
0000
0000
1000
0000
0000
0001
0000
0000
0100
0000
0000
0010
0000
0000
0100
0000
0000
0001
0000
0000
0010
0000
0000
0100
0000
1000
0000
0001
0000
0010
0000
0000
0100
0000
0000
2000
0000
0000
0000
0000
0000
,
3011
0000
0011
0000
0000
0000
1010
0000
0101
0000
0000
0110
0000
0000
1100
0000
,
0011
0000
0000
0110
0000
0000
1100
0000
0010
0100
0010
0001
1000
0000
0000
0000
,
1000
0010
1000
0010
1000
0001
0010
0100
1000
0010
1000
0010
1000
0001
0010
0100
,
0010
0100
0010
0001
0010
0100
1000
0100
0002
0003
0002
0003
0002
0003
0002
0003
,
1000
0010
0100
0010
0100
0010
1000
0100
0001
0010
0100
0010
0100
0010
0100
0010
,
0001
0010
0001
0100
0010
0100
1000
0010
0100
0001
0100
0010
0100
0010
1000
0100
,
1000
0010
0100
0010
0100
0010
1000
0100
0001
0010
0100
0010
0100
0010
0100
0010
,
0001
0010
0001
0100
0010
0100
1000
0010
0100
0001
0100
0010
0100
0010
1000
0100
,
1000
0010
0100
0010
0100
0010
1000
0100
0001
0010
0100
0010
0100
0010
0100
0010
,
0001
0010
0001
0100
0010
0100
1000
0010
0100
0001
0100
0010
0100
0010
1000
0100
,
1000
0010
0100
0010
0100
0010
1000
0100
0001
0010
0100
0010
0100
0010
0100
0010
,
0001
0010
0001
0100
0010
0100
1000
0010
0100
0001
0100
0010
0100
0010
1000
0100
,
2000
3000
2000
3000
0002
0000
0203
0000
0320
0000
0230
0000
2300
0000
3002
0000
,
1003
0000
0100
0000
0010
0000
0001
0000
0000
1000
0000
0000
0002
0000
0000
0000
0000
0000
0000
0000
0000
0000
0000
0000
,
1003
0000
0000
0100
0000
0000
0001
0000
0000
0010
0000
0000
1000
0000
0000
0100
0000
0000
0001
0000
0000
0010
0000
0000
1000
0000
0000
0100
0000
0000
0001
0000
0000
0010
0000
0000
0100
0000
1000
0000
0001
0000
0010
0000
0100
0000
1000
0000
,
0001
0000
0000
0010
0000
0000
0100
0000
0000
0010
0000
0000
0001
0000
1000
0000
0100
0000
0010
0000
0001
0000
1000
0000
0010
0000
0100
0000
0010
0000
0001
0000
0000
1000
0000
0000
0020
0000
0000
0000
0000
0000
0000
0000
0000
0000
0000
0000
,
1130
0000
0011
0000
0000
0000
1100
0000
0011
0000
0000
1010
0000
0000
0110
0000
,
1000
0000
0100
0000
0010
0000
0001
0000
0100
0000
0010
0000
0002
0000
0000
0000
0000
0000
0000
0000
0003
0000
0000
0000
0001
0000
0000
0010
0000
0000
0100
0000
0000
2000
0000
0000
0000
0000
0000
0000
0000
0000
0000
0000
0000
3000
0000
0000
,
0100
0000
0000
0010
0000
0000
0001
0000
0000
0010
0000
0000
0100
0000
0000
1000
0000
0000
0001
0000
0000
0100
0000
0000
0010
0000
0000
0100
0000
0000
1000
0000
0001
0000
0010
0000
0100
0000
1000
0000
0001
0000
0010
0000
0100
0000
1000
0000
,
0001
0000
0000
0000
0000
0000
0000
0000
0000
0000
0000
0000
0010
0000
0000
0000
0000
0000
0000
0000
0000
0000
0000
0000
0100
0000
0000
0000
0000
0000
0000
0000
0000
0000
0000
0000
1000
0000
0000
0000
0000
0000
0000
0000
0000
0000
0000
0000
0100
0000
0000
0000
0000
0000
0000
0000
0000
0000
0000
0000
0010
0000
0000
0000
0000
0000
0000
0000
0000
0000
0000
0000
0001
0000
0000
0000
0000
0000
0000
0000
0000
0000
0000
0000
0100
0000
0000
0000
0000
0000
0000
0000
0000
0000
0000
0000
0010
0000
0000
0000
0000
0000
0001
0000
0000
0000
0000
0000
1000
0000
0000
0000
0000
0000
0000
0000
0000
0000
0000
0000
0100
0000
0000
0000
0000
0000
0000
0000
0000
0000
0000
0000
0010
0000
0000
0000
0000
0000
0000
0000
0000
0000
0000
0000
0001
0000
0000
0000
0000
0000
0000
0000
1000
0000
0000
0000
0000
0000
0000
0000
0100
0000
0000
0000
0000
0000
0000
0000
0010
0000
0000
0000
0000
0000
0000
0000
1000
0000
0000
0000
0000
0000
0000
0000
0100
0000
0000
0000
0000
0000
0000
0000
,
0011
0000
0010
0100
1000
0000
0100
0000
1000
0000
0001
0000
0100
0000
0010
0000
,
0011
0000
0010
0100
1000
0000
0010
0000
0100
0000
0001
0000
0010
0000
0000
0000
,
0011
0000
0010
0100
1000
0000
0100
0000
1000
0000
0001
0000
0100
0000
0010
0000
,
0001
0100
0010
0100
0001
0010
0100
1000
0100
0010
0001
1000
0020
0000
0000
0000
,
1031
0000
0010
0100
0001
0000
1010
0000
1100
0000
0110
0000
0011
0000
1001
0000
,
1001
0000
0010
0100
0001
0000
1010
0000
1100
0000
0011
0000
1001
0000
0000
0000
,
1001
0000
0010
0100
0001
0000
1010
0000
1100
0000
0110
0000
0011
0000
1001
0000
,
1000
0000
0000
0000
0100
0000
0000
0000
0010
0000
0000
0000
0001
0000
0000
0000
0010
0000
0000
0000
0100
0000
0000
0000
1000
0000
0000
0000
0001
0000
0000
0000
2000
3000
0000
0000
0000
0000
0000
0000
0200
0300
0000
0000
0000
0000
0000
0000
0020
0030
0000
0000
0000
0000
0000
0000
0002
0003
0000
0000
0000
0000
0000
0000
,
1000
0000
0000
0000
0000
0000
0000
0000
0100
0000
0000
0000
0000
0000
0000
0000
0010
0000
0000
0000
0000
0000
0000
0000
0001
0000
0000
0000
0000
0000
0000
0000
1000
0000
0000
0000
0000
0000
0000
0000
0100
0000
0000
0000
0000
0000
0000
0000
0010
0000
0000
0000
0000
0000
0000
0000
0001
0000
0000
0000
0000
0000
0000
0000
1000
0000
0000
0000
0000
0000
0000
0000
0100
0000
0000
0000
0000
0000
0000
0000
0010
0000
0000
0000
0000
0000
0000
0000
0001
0000
0000
0000
0000
0000
0000
0000
2000
0000
0000
3000
0000
0000
0000
0000
0000
0000
0000
0000
0000
0000
0000
0000
0000
0000
0000
0000
0000
0000
0000
0000
0200
0000
0000
0300
0000
0000
0000
0000
0000
0000
0000
0000
0000
0000
0000
0000
0000
0000
0000
0000
0000
0000
0000
0000
0020
0000
0000
0030
0000
0000
0000
0000
0000
0000
0000
0000
0000
0000
0000
0000
0000
0000
0000
0000
0000
0000
0000
0000
0002
0000
0000
0003
0000
0000
0000
0000
0000
0000
0000
0000
0000
0000
0000
0000
0000
0000
0000
0000
0000
0000
0000
0000
,
0110
0010
0010
0010
,
0100
1000
0001
0010
0100
0010
1000
0100
1000
0010
0100
0010
0001
0010
0100
0001
,
1000
0100
0010
0001
1000
0010
0100
0010
0001
1000
0100
0010
0001
0000
0000
0000
,
0001
0000
0100
0000
0001
0000
0010
0000
0000
0100
0000
0000
1000
0000
0000
0001
0000
0000
0010
0000
0000
0000
0100
0000
0000
0000
1000
0000
0000
0000
0100
0000
0000
0010
0000
0000
0001
0000
0000
1000
0000
0000
0001
0000
0000
0100
0000
0000
,
0001
0010
0100
1000
0001
1000
0100
0010
0002
0003
0002
0003
0002
0000
0000
0000
,
0013
1000
0010
0100
0010
0100
0010
1000
0010
0100
0010
0001
1000
0010
0001
0010
,
0001
0000
0010
0000
0000
0100
0000
0000
1000
0000
0100
0000
0010
0000
0001
0000
1000
0000
0010
0000
0001
0000
0100
0000
0001
0000
1000
0000
0010
0000
0001
0000
,
1000
0000
0000
0000
0001
0000
0000
0000
0010
0000
0000
0000
0100
0000
0000
0000
0010
0000
0000
0000
0100
0000
0000
0000
1000
0000
0000
0010
0000
0000
0001
0000
0000
0100
0000
0000
0010
0000
0000
0000
1000
0000
0000
0000
0100
0000
0000
0000
,
1000
0000
0000
0001
0000
0000
0010
0000
0000
0100
0000
0000
1000
0000
0000
0010
0000
0000
0100
0000
0000
1000
0000
0000
0001
0000
0000
0010
0000
0000
0100
0000
0000
0001
0000
0000
1000
0000
0010
0000
0100
0000
0001
0000
1000
0000
0100
0000
,
0020
0000
0030
0000
0200
0300
0002
0000
0003
0000
2000
0000
3020
0000
2030
0000
,
3002
0203
0320
0230
2300
3002
0203
0300
,
0020
0030
0020
0030
0200
0300
0020
0030
2000
3000
0200
0300
2000
3000
0000
0000
,
0002
0003
0002
0003
0020
0030
0200
0300
2000
3000
0020
0030
0200
0300
0000
0000
,
1000
0000
0000
0100
0000
0000
0010
0000
0000
0001
0000
0000
1000
0000
0010
0000
0100
0000
0001
0000
0010
0000
0100
0000
1000
0000
0000
0100
0000
0000
0010
0000
0000
0001
0000
0000
1000
0000
0000
0010
0000
0000
0001
0000
0000
0100
0000
0000
,
1000
0000
0000
0100
0000
0000
0010
0000
0001
0000
1000
0000
0001
0000
0010
0000
0100
0000
1000
0000
0010
0000
0100
0000
0001
0000
0000
0010
0000
0000
0100
0000
0000
1000
0000
0000
0020
0000
0000
0000
0000
0000
0000
0000
0000
0000
0000
0000
,
1030
0001
0100
0001
0100
0001
0100
1000
0010
0100
1000
0010
0001
0100
0001
0100
,
0010
1000
0010
0100
1000
0010
0100
0010
0200
0000
0000
0302
0000
0000
0000
0003
,
1000
0100
0010
0001
1000
0100
0010
0001
1000
0100
0010
0001
1000
0100
0010
0001
,
1100
1100
0000
0101
1010
0110
1100
0000
,
0001
0010
0100
1000
0001
0010
0100
1000
0001
0010
0100
1000
0001
0010
0100
1000
0001
0010
0100
1000
0001
0010
0100
1000
,
0001
0100
0001
0100
0020
0000
2030
0000
3002
0000
0023
0000
0230
0000
2300
0000
,
3001
0100
0001
0100
0010
1000
0010
1000
0001
1000
0001
1000
0010
0100
0010
0100
,
1000
0010
1000
0010
0100
0010
0001
0010
1000
0001
1000
0001
0100
0001
0100
0001
,
0010
1000
0010
1000
0100
0010
0001
1000
0200
0000
0000
0000
0000
0000
0000
0000
,
1300
0100
0010
0001
1000
0100
0010
0001
0100
0010
0100
0010
0100
0010
0100
0010
,
2000
0000
0000
0000
0000
0000
0000
0000
0000
0000
0000
0000
0000
0000
0000
3000
0000
0000
0002
0000
0000
0000
0000
0000
0203
0000
0300
0000
0020
0000
0030
0000
0200
0000
0300
0000
0020
0000
0030
0000
0000
0000
0100
0000
0000
0010
0000
0000
,
0002
0023
0230
2300
3000
0000
0020
0032
,
0023
0230
2300
3002
0023
0230
2300
3200
,
0300
2000
3020
0230
0320
0000
0000
0000
,
0030
2000
3200
0320
,
0032
0000
0000
0000
0023
0030
0020
0030
0000
0000
0200
0000
0000
0000
0302
0000
,
0023
0230
2300
3200
0302
0023
0230
0320
,
0030
0000
0000
0000
0000
0000
2000
3020
0000
0000
0000
0000
0032
0000
0000
0000
0000
0000
0203
0000
0000
0000
0000
0000
,
0302
0023
0032
0203
0320
0230
0302
2003
,
3002
0203
0320
0230
2300
3200
0320
0030
,
0002
0023
0230
2300
,
3020
0030
0020
0030
0020
0030
0002
0003
0002
0003
0002
0003
0002
0000
0003
0000
,
0001
0000
0010
0000
0100
0000
1000
0000
0010
0000
0100
0000
0001
0000
0000
1000
0000
0000
0001
0000
0010
0000
0100
0000
1000
0000
0010
0000
0100
0000
0001
0000
0010
0000
0100
0000
1000
0000
0000
0001
0000
0000
1000
0000
0100
0000
0010
0000
,
0001
0000
0100
0000
0010
0000
1000
0000
0100
0000
0010
0000
0001
0000
0100
0000
0010
0000
1000
0000
0000
0001
0000
0000
0100
0000
0000
0001
0000
0000
0010
0000
0000
0001
0000
0000
0200
0000
0000
0000
0000
0000
2300
0000
0000
0000
0000
0000
,
3100
0000
0000
0010
0000
0000
0001
0000
0000
1000
0000
0000
0100
0000
0001
0000
0010
0000
1000
0000
0100
0000
0001
0000
1000
0000
0000
0001
0000
0000
0010
0000
0000
0100
0000
0000
1000
0000
0000
0001
0000
0000
0010
0000
0000
0100
0000
0000
,
1000
0000
0000
0100
0000
0000
0010
0000
0000
0001
0000
0000
1000
0000
0000
0010
0000
0000
0100
0000
0000
0001
0000
0000
1000
0000
0100
0000
0010
0000
0001
0000
0000
0100
0000
0000
0001
0000
0000
1000
0000
0000
0100
0000
0000
0010
0000
0000
,
0002
0000
0003
1100
0000
0011
0000
1010
,
0110
0101
0000
0011
0000
0200
0000
1300
,
0001
0010
0100
1000
0001
0100
0010
1000
0001
0100
0001
0100
0001
0100
0001
0100
,
0011
0110
1100
2010
0000
0000
0000
0000
,
3110
0110
1100
0110
0000
1100
0110
1100
,
0110
0101
0000
0110
0000
1100
0022
0000
,
1033
0100
0010
0001
0100
0010
0001
1000
0010
0001
1000
0100
0001
1000
0100
0010
,
0001
0100
1000
0010
0100
1000
0001
0100
1000
0010
0100
1000
0001
0010
0100
1000
0010
0100
1000
0100
0010
0001
1000
0010
,
0200
0300
2000
3000
0020
0030
0200
0300
0002
0003
0020
0030
0200
0300
2000
3000
,
0001
0010
0100
1000
0001
0010
0100
1000
0001
0010
0100
1000
0001
0010
0100
1000
0001
0010
0100
1000
0001
0010
0100
1000
,
0001
0010
0100
1000
0010
0100
0010
1000
0001
0010
0100
1000
0010
1000
0100
1000
,
0002
0003
0200
0300
0020
0030
2000
3000
0200
0000
0302
0000
0023
0000
0000
0030
,
1100
1010
1100
1001
0000
0110
0110
0011
,
0101
0000
0000
0101
0000
0000
0101
0000
0000
1010
0000
0000
1100
0000
0000
0110
0000
0000
0001
0010
0100
1000
0001
0010
,
1000
0000
0000
0100
0000
0000
0010
0000
0000
0001
0000
0000
1000
0000
0010
0000
0100
0000
0001
0000
0010
0000
0100
0000
1000
0000
0000
0100
0000
0000
0010
0000
0000
0001
0000
0000
1000
0000
0000
0010
0000
0000
0100
0000
0000
0001
0000
0000
,
1000
0000
0000
0100
0000
0000
0010
0000
0000
0001
0000
0000
1000
0000
0010
0000
0100
0000
0001
0000
0010
0000
0100
0000
1000
0000
0000
0001
0000
0000
0100
0000
0000
0001
0000
0000
1000
0000
0000
0001
0000
0000
0010
0000
0000
0001
0000
0000
,
1100
1100
0011
1100
0010
0101
0011
1100
,
0011
1100
0011
1100
0011
1010
0101
1001
,
0101
0011
0011
0101
0011
0011
1001
1100
,
0110
1100
0110
0011
0101
1001
1010
1100
,
0011
0011
0011
1001
0000
1001
0000
1001
,
0000
1001
0000
1001
1001
0101
0110
1010
,
1000
0100
0010
0001
1000
0100
0010
0001
1000
0100
0010
0001
1000
0100
0010
0001
1000
0100
0010
0001
1000
0100
0010
0001
,
1000
0100
0010
0001
1000
0100
0010
0001
1000
0100
0010
0001
1000
0100
0010
0001
1000
0100
0010
0001
1000
0100
0010
0001
,
1000
0100
0010
0001
1000
0100
0010
0001
1000
0100
0010
0001
1000
0100
0010
0001
1000
0100
0010
0001
1000
0100
0010
0001
,
1000
0100
0010
0001
1000
0100
0010
0001
1000
0100
0010
0001
1000
0100
0010
0001
1000
0100
0010
0001
1000
0100
0010
0001
,
1100
0101
0110
1010
1001
0101
0110
1100
,
1002
0000
0203
0000
,
1300
0000
0001
0000
1000
0000
0010
0000
1000
0000
0100
0000
1000
0000
0000
0100
0000
0000
0010
0000
0000
0001
0000
0000
1100
0000
0000
0000
0000
0000
0000
0000
0000
0110
0000
0000
0000
0000
0000
0000
0000
0000
0011
0000
0000
0000
0000
0000
,
2002
0000
3003
0000
;

//---------------dance-single - ----------------
#NOTES:
     dance-single:
     :
     Challenge:
     15:
     1.000,1.000,1.000,0.867,1.000,1884.000,307.000,158.000,0.000,34.000:
1001
0100
0010
1000
0100
0010
0001
0100
,
0001
0010
0100
0010
1000
0001
1010
0100
,
1001
0100
0010
1000
0100
0010
0001
0100
,
0001
0010
0100
0010
1000
0001
0010
0100
,
1001
0100
0010
1000
0100
0010
0001
0100
,
0001
0010
0100
0010
1000
0001
0010
0100
,
1001
0100
0010
1000
0100
0010
0001
0010
,
1001
0010
0100
0010
1000
0001
0010
0100
,
1001
0100
0010
1000
0100
0010
0001
0100
,
0001
0010
0100
0010
1000
0001
1010
0100
,
1001
0100
0010
1000
0100
0010
0001
0100
,
0001
0010
0100
0010
1000
0001
0010
0100
,
1001
0100
0010
1000
0100
0010
0001
0100
,
0001
0010
0100
0010
1000
0001
0010
0100
,
1001
0100
0010
1000
0100
0010
0001
0010
,
1001
0100
0010
0100
1010
0001
1000
0100
1001
0010
0100
1000
0001
0100
0010
0100
,
1001
0100
1000
0100
0010
0001
1000
0100
1000
0100
0010
0001
1000
0100
0010
0001
,
1000
0100
1000
0100
0001
0010
1000
0100
1000
0100
0001
0010
1000
0100
0010
0001
,
0100
0010
0100
0010
0001
1000
0100
0010
0100
0010
0001
1000
0100
0010
0001
1000
,
0100
0010
0100
0010
0001
1000
0100
0010
0100
0010
0001
1000
0100
0010
0001
1000
,
0010
0001
0010
0001
0100
1000
0010
0001
0010
0001
0100
1000
0010
0001
0100
1000
,
0010
0001
0010
0001
0100
1000
0010
0001
0010
0001
0100
1000
0010
0001
0100
0010
,
1000
0001
1000
0001
0100
0010
1000
0001
1000
0001
0100
0010
1000
0001
0100
0010
,
1000
0100
0010
0001
1000
0010
0100
0001
1000
0010
0001
1000
0220
0000
0000
0000
,
1330
0100
1000
0100
0010
0001
1000
0100
1000
0100
0010
0001
1000
0100
0010
0001
,
1000
0100
1000
0100
0001
0010
1000
0100
1000
0100
0001
0010
1000
0100
0010
0001
,
0100
0010
0100
0010
0001
1000
0100
0010
0100
0010
0001
1000
0100
0010
0001
1000
,
0100
0010
0100
0010
0001
1000
0100
0010
0100
0010
0001
1000
0100
0010
0001
1000
,
0010
0001
0010
0001
0100
1000
0010
0001
0010
0001
0100
1000
0010
0001
0100
1000
,
0010
0001
0010
0001
0100
1000
0010
0001
0010
0001
0100
1000
0010
0001
0100
0010
,
1000
0001
1000
0001
0100
0010
1000
0001
1000
0001
0100
0010
1000
0001
0100
0010
,
2000
0000
0000
0000
0000
0000
3002
0000
0000
0000
0000
0000
2003
0000
0000
3002
0000
0000
2003
0000
0000
3002
0000
0000
1003
0000
0001
0000
1000
0000
0001
0000
1000
0000
0001
0000
1000
0000
0001
0000
1000
0000
0001
0000
1000
0000
0001
0000
,
1100
0010
0101
0010
0100
0010
1001
0100
0001
0010
1100
0010
0100
0010
1100
0010
,
0001
0010
1001
0100
0010
0100
1001
0010
0100
0001
1100
0010
0100
0010
1001
0100
,
1000
0010
0101
0010
0100
0010
1001
0100
0001
0010
1100
0010
0100
0010
1100
0010
,
0001
0010
1001
0100
0010
0100
1001
0010
0100
0001
1100
0010
0100
0010
1001
0100
,
1000
0010
0101
0010
0100
0010
1001
0100
0001
0010
1100
0010
0100
0010
1100
0010
,
0001
0010
1001
0100
0010
0100
1001
0010
0100
0001
1100
0010
0100
0010
1001
0100
,
1000
0010
0101
0010
0100
0010
1001
0100
0001
0010
1100
0010
0100
0010
1100
0010
,
0001
0010
1001
0100
0010
0100
1001
0010
0100
0001
1100
0010
0100
0010
1001
0100
,
0010
0010
0000
0001
0010
0100
1000
0000
,
0100
0000
0000
0000
0000
0000
0100
0000
0000
0000
0000
0000
0000
0000
0000
0000
0000
0000
0000
0000
0100
0000
0010
0000
0001
0000
0000
0010
0000
0000
0100
0000
0000
1000
0000
0000
0100
0000
0000
0000
0000
0000
0000
0000
0000
0000
0000
0000
,
1000
0010
1000
0010
0100
0010
0100
0010
0100
0001
0100
0001
1000
0001
1000
0001
,
0100
0000
0000
0010
0000
0000
0100
0000
0000
1000
0000
0000
0001
0000
0000
0100
0000
0000
0010
0000
0000
0100
0000
0000
0001
0000
0000
0010
0000
0000
0100
0000
1000
0000
0001
0000
0010
0000
0000
0100
0000
0000
2000
0000
0000
0000
0000
0000
,
3011
0000
0011
0000
0000
0000
1010
0000
0101
0000
0000
0110
0000
0000
1100
0000
,
0011
0000
0000
0110
0000
0000
1100
0000
0010
0100
0010
0001
1000
0000
0000
0000
,
1000
0010
1000
0010
1000
0001
0010
0100
1000
0010
1000
0010
1000
0001
0010
0100
,
0010
0100
0010
0001
0010
0100
1000
0100
0002
0003
0002
0003
0002
0003
0002
0003
,
1100
0010
0101
0010
0100
0010
1001
0100
0001
0010
1100
0010
0100
0010
1100
0010
,
0001
0010
1001
0100
0010
0100
1001
0010
0100
0001
1100
0010
0100
0010
1001
0100
,
1000
0010
0101
0010
0100
0010
1001
0100
0001
0010
1100
0010
0100
0010
1100
0010
,
0001
0010
1001
0100
0010
0100
1001
0010
0100
0001
1100
0010
0100
0010
1001
0100
,
1000
0010
0101
0010
0100
0010
1001
0100
0001
0010
1100
0010
0100
0010
1100
0010
,
0001
0010
1001
0100
0010
0100
1001
0010
0100
0001
1100
0010
0100
0010
1001
0100
,
1000
0010
0101
0010
0100
0010
1001
0100
0001
0010
1100
0010
0100
0010
1100
0010
,
0001
0010
1001
0100
0010
0100
1001
0010
0100
0001
1100
0010
0100
0010
1001
0100
,
2010
3000
2000
3000
0002
0000
0203
0000
0320
0000
0230
0000
2300
0000
3002
0000
,
1003
0000
0100
0000
0010
0000
0001
0000
0000
1000
0000
0000
0002
0000
0000
0000
0000
0000
0000
0000
0000
0000
0000
0000
,
1003
0000
0000
0100
0000
0000
0001
0000
0000
0010
0000
0000
1000
0000
0000
0100
0000
0000
0001
0000
0000
0010
0000
0000
1000
0000
0000
0100
0000
0000
0001
0000
0000
0010
0000
0000
0100
0000
1000
0000
0001
0000
0010
0000
0100
0000
1000
0000
,
0001
0000
0000
0000
0000
0000
0000
0000
0000
0000
0000
0000
0010
0000
0000
0000
0000
0000
0000
0000
0000
0000
0000
0000
0100
0000
0000
0000
0000
0000
0000
0000
0000
0000
0000
0000
0010
0000
0000
0000
0000
0000
0000
0000
0000
0000
0000
0000
0001
0000
0000
0000
0000
0000
0000
0000
1000
0000
0000
0000
0000
0000
0000
0000
0100
0000
0000
0000
0000
0000
0000
0000
0010
0000
0000
0000
0000
0000
0000
0000
0001
0000
0000
0000
0000
0000
0000
0000
1000
0000
0000
0000
0000
0000
0000
0000
0100
0000
0000
0000
0000
0000
0010
0000
0000
0000
0000
0000
0001
0000
0000
0000
0000
0000
1000
0000
0000
0000
0000
0000
0100
0000
0000
0000
0000
0000
0010
0000
0000
0000
0000
0000
0001
0000
0000
0000
0000
0000
0000
0000
0000
0000
0000
0000
0200
0000
0000
0000
0000
0000
0000
0000
0000
0000
0000
0000
0000
0000
0000
0000
0000
0000
0000
0000
0000
0000
0000
0000
0000
0000
0000
0000
0000
0000
0000
0000
0000
0000
0000
0000
0000
0000
0000
0000
0000
0000
0000
0000
0000
0000
0000
0000
,
1310
0000
0011
0000
0000
0000
1100
0000
0011
0000
0000
1010
0000
0000
0110
0000
,
1000
0000
0100
0000
0010
0000
0001
0000
0100
0000
0010
0000
0002
0000
0000
0000
0000
0000
0000
0000
0003
0000
0000
0000
0001
0000
0000
0010
0000
0000
0100
0000
0000
2000
0000
0000
0000
0000
0000
0000
0000
0000
0000
0000
0000
3000
0000
0000
,
0100
0000
0000
0010
0000
0000
0001
0000
0000
0010
0000
0000
0100
0000
0000
1000
0000
0000
0001
0000
0000
0100
0000
0000
0010
0000
0000
0100
0000
0000
1000
0000
0001
0000
0010
0000
0100
0000
1000
0000
0001
0000
0010
0000
0100
0000
1000
0000
,
0001
0000
0000
0000
0000
0000
0000
0000
0000
0000
0000
0000
0010
0000
0000
0000
0000
0000
0000
0000
0000
0000
0000
0000
0100
0000
0000
0000
0000
0000
0000
0000
0000
0000
0000
0000
1000
0000
0000
0000
0000
0000
0000
0000
0000
0000
0000
0000
0100
0000
0000
0000
0000
0000
0000
0000
0000
0000
0000
0000
0010
0000
0000
0000
0000
0000
0000
0000
0000
0000
0000
0000
0001
0000
0000
0000
0000
0000
0000
0000
0000
0000
0000
0000
0100
0000
0000
0000
0000
0000
0000
0000
0000
0000
0000
0000
0010
0000
0000
0000
0000
0000
0001
0000
0000
0000
0000
0000
1000
0000
0000
0000
0000
0000
0000
0000
0000
0000
0000
0000
0100
0000
0000
0000
0000
0000
0000
0000
0000
0000
0000
0000
0010
0000
0000
0000
0000
0000
0000
0000
0000
0000
0000
0000
0001
0000
0000
0000
0000
0000
0000
0000
1000
0000
0000
0000
0000
0000
0000
0000
0100
0000
0000
0000
0000
0000
0000
0000
0010
0000
0000
0000
0000
0000
0000
0000
1000
0000
0000
0000
0000
0000
0000
0000
0100
0000
0000
0000
0000
0000
0000
0000
,
0011
0000
0010
0100
1000
0000
0100
0000
1000
0000
0001
0000
0100
0000
0010
0000
,
0011
0000
0010
0100
1000
0000
0010
0000
0100
0000
0001
0000
0010
0000
0000
0000
,
0011
0000
0010
0100
1000
0000
0100
0000
1000
0000
0001
0000
0100
0000
0010
0000
,
0001
0100
0010
0100
0001
0010
0100
1000
0100
0010
0001
1000
0020
0000
0000
0000
,
1031
0000
0010
0100
0001
0000
1010
0000
1100
0000
0110
0000
0011
0000
1001
0000
,
1001
0000
0010
0100
0001
0000
1010
0000
1100
0000
0011
0000
1001
0000
0000
0000
,
1001
0000
0010
0100
0001
0000
1010
0000
1100
0000
0110
0000
0011
0000
1001
0000
,
1000
0000
0000
0000
0100
0000
0000
0000
0010
0000
0000
0000
0001
0000
0000
0000
0010
0000
0000
0000
0100
0000
0000
0000
1000
0000
0000
0000
0001
0000
0000
0000
2000
3000
0000
0000
0000
0000
0000
0000
0200
0300
0000
0000
0000
0000
0000
0000
0020
0030
0000
0000
0000
0000
0000
0000
0002
0003
0000
0000
0000
0000
0000
0000
,
1000
0000
0000
0000
0000
0000
0000
0000
0001
0000
0000
0000
0000
0000
0000
0000
1000
0000
0000
0000
0000
0000
0000
0000
0001
0000
0000
0000
0000
0000
0000
0000
1000
0000
0000
0000
0000
0000
0000
0000
0001
0000
0000
0000
0000
0000
0000
0000
1000
0000
0000
0000
0000
0000
0000
0000
0001
0000
0000
0000
0000
0000
0000
0000
1000
0000
0000
0000
0000
0000
0000
0000
0001
0000
0000
0000
0000
0000
0000
0000
1000
0000
0000
0000
0000
0000
0000
0000
0001
0000
0000
0000
0000
0000
0000
0000
2000
0000
0000
3000
0000
0000
0000
0000
0000
0000
0000
0000
0000
0000
0000
0000
0000
0000
0000
0000
0000
0000
0000
0000
0200
0000
0000
0300
0000
0000
0000
0000
0000
0000
0000
0000
0000
0000
0000
0000
0000
0000
0000
0000
0000
0000
0000
0000
0020
0000
0000
0030
0000
0000
0000
0000
0000
0000
0000
0000
0000
0000
0000
0000
0000
0000
0000
0000
0000
0000
0000
0000
0002
0000
0000
0003
0000
0000
0000
0000
0000
0000
0000
0000
0000
0000
0000
0000
0000
0000
0000
0000
0000
0000
0000
0000
,
0110
0010
0010
0010
,
0100
1000
0101
0010
0100
0010
1001
0100
1000
0010
1100
0010
0001
0010
1100
0001
,
1000
0100
1010
0001
1000
0010
1100
0010
0001
1000
0101
0010
0001
0000
1000
0000
,
0001
0000
0100
0000
0001
0000
1010
0000
0000
0100
0000
0000
1000
0000
0000
0001
0000
0000
1010
0000
0000
0000
0100
0000
0000
0000
1000
0000
0000
0000
0101
0000
0000
0010
0000
0000
0001
0000
0000
1000
0000
0000
0011
0000
0000
0100
0000
0000
,
0001
0010
0101
1000
0001
1000
0101
0010
0002
0003
1002
0003
0002
0000
1000
0000
,
0013
1000
0011
0100
0010
0100
0011
1000
0010
0100
1010
0001
1000
0010
0101
0010
,
0001
0000
0010
0000
0001
0100
0000
0000
1000
0000
0100
0000
1010
0000
0001
0000
1000
0000
0010
0000
1001
0000
0100
0000
0001
0000
1000
0000
0110
0000
0001
0000
,
1000
0000
0000
0000
0001
0000
1000
0000
0010
0000
0000
0000
0100
0000
0000
0000
0010
0000
1000
0000
0100
0000
0000
0000
1000
0000
0000
0010
0000
0000
1001
0000
0000
0100
0000
0000
0010
0000
0000
0000
1000
0000
0001
0000
0100
0000
0000
0000
,
1000
0000
0000
0001
0000
0000
1010
0000
0000
0100
0000
0000
1000
0000
0000
0010
0000
0000
0101
0000
0000
1000
0000
0000
0001
0000
0000
0010
0000
0000
1100
0000
0000
0001
0000
0000
1000
0000
0010
0000
0100
0000
0001
0000
1000
0000
0100
0000
,
0020
0000
1030
0000
0200
0300
1002
0000
0003
0000
2100
0000
3020
0000
2130
0000
,
3002
1203
0320
0231
2300
3012
0203
0301
,
0020
0030
0021
0030
0200
0300
0021
0030
2000
3000
0210
0300
2000
3000
0100
0000
,
0002
0003
1002
0003
0020
0030
0201
0300
2000
3000
0021
0030
0200
0300
0001
0000
,
1000
0000
0000
0100
0000
0000
1010
0000
0000
0001
0000
0000
1000
0000
0010
0000
0100
0000
1001
0000
0010
0000
0100
0000
1000
0000
0000
0100
0000
0000
1010
0000
0000
0001
0000
0000
1000
0000
0000
0010
0000
0000
1001
0000
0000
0100
0000
0000
,
1000
0000
0000
0100
0000
0000
1010
0000
0001
0000
1000
0000
0001
0000
0010
0000
0100
0000
1001
0000
0010
0000
0100
0000
0001
0000
0000
0010
0000
0000
0101
0000
0000
1000
0000
0000
0020
0000
0000
0000
0000
0000
0001
0000
0000
0000
0000
0000
,
1030
0100
0010
0001
1000
0100
0010
0001
1000
0100
0010
0001
1000
0100
0010
0001
1000
0100
0001
0010
1000
0100
0001
0010
1000
0100
0001
0010
1000
0100
0001
0010
,
1000
0001
0100
0010
1000
0001
0100
0010
1000
0001
0100
0010
1000
0001
0100
0010
2000
0000
0000
0000
0000
0000
0000
0000
3002
0000
0000
0000
0000
0000
0000
0000
,
1003
0100
1010
0001
1000
0100
1010
0001
1000
0100
1010
0001
1000
0100
1010
0001
,
1100
1100
0010
0101
1010
0110
1100
0010
,
0001
1000
0001
1000
0001
1000
0001
1000
0001
1000
0001
1000
0001
1000
0001
1000
0001
1000
0001
1000
0001
1000
0001
1000
,
0001
0100
1001
0100
0020
0000
2130
0000
3002
0000
1023
0000
0230
0000
2301
0000
,
3001
0100
0011
0100
0010
1000
0110
1000
0001
1000
0101
1000
0010
0100
0011
0100
,
1000
0010
1001
0010
0100
0010
0101
0010
1000
0001
1010
0001
0100
0001
1100
0001
,
0010
1000
0110
1000
0100
0010
0101
1000
0200
0000
0010
0000
0000
0000
0010
0000
,
1300
0100
0010
0001
1000
0100
0010
0001
0100
0010
0100
0010
0100
0010
0100
0010
,
2000
0000
0000
0000
0000
0000
0100
0000
0000
0000
0000
0000
0000
0000
0000
3000
0000
0000
0012
0000
0000
0000
0000
0000
0203
0000
0300
0000
0020
0000
1030
0000
0200
0000
0300
0000
0020
0000
0030
0000
0000
0000
1100
0000
0000
0010
0000
0000
,
0002
1023
0230
2301
3000
0100
0020
1032
,
0023
0231
2300
3102
0023
0231
2300
3210
,
0300
2001
3020
0231
0320
0001
0000
0001
,
0030
0001
2000
0001
3200
0001
0320
1000
,
0032
0000
1000
0000
0023
0030
1020
0030
0000
0000
1200
0000
0000
0000
1302
0000
,
0023
0231
2300
3210
0302
1023
0230
1320
,
0030
0000
0000
0000
0000
0000
2000
3020
0000
0000
0000
0000
0032
0000
0000
0000
0000
0000
0203
0000
0000
0000
0000
0000
,
0302
1023
0032
1203
0320
1230
0302
2013
,
3002
1203
0320
0231
2300
3201
0320
1030
,
0002
0100
0023
1000
0230
0001
2300
0001
,
3020
0030
0120
0030
0020
0030
0102
0003
0002
0003
0102
0003
0002
0000
0103
0000
,
0001
0000
0000
0000
0000
0000
0010
0000
0000
0000
0000
0000
0100
0000
0000
0000
0000
0000
1000
0000
0000
0000
0000
0000
0001
0000
0000
0000
0000
0000
0010
0000
0000
0000
0000
0000
0100
0000
0000
0000
0000
0000
1000
0000
0000
0000
0000
0000
0001
0000
0000
0000
0000
0000
0000
0000
0010
0000
0000
0000
0000
0000
0000
0000
0100
0000
0000
0000
0000
0000
0000
0000
0001
0000
0000
0000
0000
0000
0010
0000
0000
0000
0000
0000
0100
0000
0000
0000
0000
0000
1000
0000
0000
0000
0000
0000
0001
0000
0000
0000
0000
0000
0010
0000
0000
0000
0000
0000
0100
0000
0000
0000
0000
0000
1000
0000
0000
0000
0000
0000
0001
0000
0000
0000
0000
0000
0010
0000
0000
0000
0000
0000
0100
0000
0000
0000
0000
0000
1000
0000
0000
0000
0000
0000
0001
0000
0000
0000
0000
0000
0000
0000
0010
0000
0000
0000
0000
0000
0000
0000
0100
0000
0000
0000
0000
0000
0000
0000
0001
0000
0000
0000
0000
0000
0010
0000
0000
0000
0000
0000
0100
0000
0000
0000
0000
0000
1000
0000
0000
0000
0000
0000
,
0001
0000
0000
0000
0000
0000
0010
0000
0000
0000
0000
0000
0100
0000
0000
0000
0000
0000
1000
0000
0000
0000
0000
0000
0001
0000
0000
0000
0000
0000
0010
0000
0000
0000
0000
0000
0100
0000
0000
0000
0000
0000
1000
0000
0000
0000
0000
0000
0001
0000
0000
0000
0000
0000
0010
0000
0000
0000
0000
0000
0100
0000
0000
0000
0000
0000
1000
0000
0000
0000
0000
0000
0001
0000
0000
0000
0000
0000
0000
0000
0010
0000
0000
0000
0000
0000
0000
0000
0100
0000
0000
0000
0000
0000
0000
0000
1000
0000
0000
0000
0000
0000
0000
0000
0010
0000
0000
0000
0000
0000
0000
0000
0100
0000
0000
0000
0000
0000
0000
0000
0001
0000
0000
0000
0000
0000
0000
0000
0010
0000
0000
0000
0000
0000
0000
0000
0100
0000
0000
0000
0000
0000
0000
0000
2000
0000
0000
0000
0000
0000
0000
0000
0000
0000
0000
0000
0000
0000
0000
0000
0000
0000
0000
0000
0000
0000
0000
0000
3002
0000
0000
0000
0000
0000
0000
0000
0000
0000
0000
0000
0000
0000
0000
0000
0000
0000
0000
0000
0000
0000
0000
0000
,
0103
0000
0000
0010
0000
0000
0001
0000
0000
1000
0000
0000
0100
0000
0001
0000
0010
0000
1000
0000
0100
0000
0001
0000
1000
0000
0000
0001
0000
0000
0010
0000
0000
0100
0000
0000
1000
0000
0000
0001
0000
0000
0010
0000
0000
0100
0000
0000
,
1000
0000
0000
0100
0000
0000
0010
0000
0000
0001
0000
0000
1000
0000
0000
0010
0000
0000
0100
0000
0000
0001
0000
0000
1000
0000
0100
0000
0010
0000
0001
0000
0000
0100
0000
0000
0001
0000
0000
1000
0000
0000
0100
0000
0000
0010
0000
0000
,
0002
0100
0013
1100
0100
0011
0100
1010
,
0110
0101
1000
0011
1000
0210
0001
1310
,
0001
0010
0100
1000
0001
0100
0010
1000
0001
0100
0001
0100
0001
0100
0001
0100
,
0011
0110
1100
2010
0000
0001
0000
0001
,
3110
0110
1100
0110
0001
1100
0110
1100
,
0110
0101
1000
0110
0001
1100
0022
0000
,
1033
0100
0010
0001
0100
0010
0001
1000
0010
0001
1000
0100
0001
1000
0100
0010
,
0001
0100
1000
0010
0100
1000
0001
0100
1000
0010
0100
1000
0001
0010
0100
1000
0010
0100
1000
0100
0010
0001
1000
0010
,
0100
0010
1000
0100
0010
0001
0100
1000
0001
0100
0010
1000
0100
0001
1000
0010
,
0001
0010
0100
1000
0001
0010
0100
1000
0001
0010
0100
1000
0001
0010
0100
1000
0001
0010
0100
1000
0001
0010
0100
1000
,
0001
0010
0100
1000
0010
0100
0010
1000
0001
0010
0100
1000
0010
1000
0100
1000
,
0001
0010
0100
1000
0010
0100
1000
0001
0200
0000
0302
0000
0023
0000
0000
0030
,
1100
1010
1100
1001
0000
0110
0110
0011
,
0101
0000
0000
0101
0000
0000
0101
0000
0000
1010
0000
0000
1100
0000
0000
0110
0000
0000
0001
0010
0100
1000
0001
0010
,
1000
0000
0000
0100
0000
0000
0010
0000
0000
0001
0000
0000
1000
0000
0010
0000
0100
0000
0001
0000
0010
0000
0100
0000
1000
0000
0000
0100
0000
0000
0010
0000
0000
0001
0000
0000
1000
0000
0000
0010
0000
0000
0100
0000
0000
0001
0000
0000
,
1000
0000
0000
0100
0000
0000
0010
0000
0000
0001
0000
0000
1000
0000
0010
0000
0100
0000
0001
0000
0010
0000
0100
0000
1000
0000
0000
0001
0000
0000
0100
0000
0000
0001
0000
0000
1000
0000
0000
0001
0000
0000
0010
0000
0000
0001
0000
0000
,
1100
1100
0011
1100
0010
0101
0011
1100
,
0011
1100
0011
1100
0011
1010
0101
1001
,
0101
0011
0011
0101
0011
0011
1001
1100
,
0110
1100
0110
0011
0101
1001
1010
1100
,
0011
0011
0011
1001
0000
1001
0000
1001
,
0000
1001
0000
1001
1001
0101
0110
1010
,
1000
0100
0010
0001
1000
0100
0010
0001
1000
0100
0010
0001
1000
0100
0010
0001
1000
0100
0010
0001
1000
0100
0010
0001
1000
0100
0010
0001
1000
0100
0010
0001
,
1000
0100
0010
0001
1000
0100
0010
0001
1000
0100
0010
0001
1000
0100
0010
0001
1000
0100
0010
0001
1000
0100
0010
0001
1000
0100
0010
0001
1000
0100
0010
0001
,
1000
0100
0010
0001
1000
0100
0010
0001
1000
0100
0010
0001
1000
0100
0010
0001
1000
0100
0010
0001
1000
0100
0010
0001
1000
0100
0010
0001
1000
0100
0010
0001
,
1000
0100
0010
0001
1000
0100
0010
0001
1000
0100
0010
0001
1000
0100
0010
0001
1000
0100
0010
0001
1000
0100
0010
0001
1000
0100
0010
0001
1000
0100
0010
0001
,
1000
0101
0110
1010
1001
0101
0110
1100
,
1002
0000
0203
0000
,
1300
0001
1000
0001
1000
0001
1000
0001
1000
0000
0100
0000
0010
0000
0001
0000
1100
0000
0000
0000
0000
0000
0110
0000
0000
0000
0000
0000
0011
0000
0000
0000
,
2002
0000
3003
0000
;
